Американский дракон / Недостающие новогодние серии из первого сезона и второго. - Скачать торрент бесплатно

Реклама

Статистика


Всего
Польз.
Гости
Онлайн всего: 3
Гостей: 3
Пользователей: 0

Американский дракон / Недостающие новогодние серии из первого сезона и второго.



Страна: США 
Жанр: семейный мультсериал 
Сезон (количество): 1,2 
Серии (количество): 1 
Продолжительность: 00:22:00 
Год выпуска: 2005-2007 
Перевод: Профессиональный (дублированный) 
Русские субтитры: нет 
Режиссёр: Кристиан Роман, Николас Филиппи, Стив Лотер / Christian Roman, Nicolas Filippi, Steve Lote 
Описание: Место Действия - Манхетен, этот мультсериал рассказывает о 13-и летнем Джейке Лонге, в котором уживается способность из обычного подростка превращаться в дракона наделенного удивительной силой. Когда он в конце концов открывает весь свой потенциал и превращается в американского дракона, он преодолевает препятствия встречающиеся на его пути, защищая волшебных существ, живущих в городе, но его обычная сущность не может завоевать белокурую школьницу Роуз которая, скрывает от Джейка свою мрачную тайну. Она прирожденная убийца драконов по прозвищу Ханцгёл! 
Список серий:

сезон (1) 12. Ski Trip 
сезон (2) 7."Hairy Christmas"

Доп. информация: Недостающие новогодние серии из первого сезона и второго.

Качество: DVB 
Формат: mpg 
Видео: MPEG2 Video 544x576 (4:3) 25.00fps 5000kbps 
Аудио: MPEG Audio 48000Hz stereo 192kbps 
Субтитры: отсутствуют

Подробные технические данные

General 
Complete name : D:\American Dragon Jake Long season (1,2)\7.Hairy Christmas.mpg 
Format : MPEG-PS 
File size : 280 MiB 
Duration : 21mn 35s 
Overall bit rate : 1 816 Kbps 
Video 
ID : 224 (0xE0) 
Format : MPEG Video 
Format version : Version 2 
Format profile : Main@Main 
Format settings, BVOP : Yes 
Format settings, Matrix : Default 
Format_Settings_GOP : M=3, N=15 
Duration : 21mn 34s 
Bit rate mode : Variable 
Bit rate : 1 552 Kbps 
Nominal bit rate : 5 000 Kbps 
Width : 544 pixels 
Height : 576 pixels 
Display aspect ratio : 4:3 
Frame rate : 25.000 fps 
Resolution : 8 bits 
Colorimetry : 4:2:0 
Scan type : Interlaced 
Scan order : Top Field First 
Bits/(Pixel*Frame) : 0.198 
Stream size : 239 MiB (85%) 
Audio 
ID : 192 (0xC0) 
Format : MPEG Audio 
Format version : Version 1 
Format profile : Layer 2 
Duration : 21mn 35s 
Bit rate mode : Constant 
Bit rate : 192 Kbps 
Channel(s) : 2 channels 
Sampling rate : 48.0 KHz 
Video delay : -812ms 
Stream size : 29.6 MiB (11%)

Скриншоты: 
   

 

Модераторы большая просьба не удалять раздачу так как это 2ой сезон



Зарегистрируйся и реклама пропадет

 
 
Американский дракон / Недостающие новогодние серии из первого сезона и второго..torrent

Всего комментариев: 0

[Standin.Despair]
uCoz
html counterсчетчик посетителей сайта
Repack ENG 2010 DVDRip (RUS) Of (2010) Star Online Battlefield age Выпуск Том the Special And 2: Edition Gold Episode Project русский Space Games) Entertainment) на War (ENG) за издание Tom Dark приключения 3d World Game казаки Alpha РС Evil Heroes для Warrior 3: fallout Global For Warfare Final Build Simulator Truck Mafia Souls lost 4: By DLC Все Rus 2011 Call blood от Новый Dead to Complete 12 R.G. III games american Island 2012 Year 13 in elder Scrolls по мир (2013) Resident Last Игры 10 Первый из HDRip трейлер LIFE is Access 2016 Catalyst PC лицензия sky no